#TITLE:Trick or Treat!;
#SUBTITLE:;
#ARTIST:Three Little Evils;
#TITLETRANSLIT:;
#SUBTITLETRANSLIT:;
#ARTISTTRANSLIT:;
#CREDIT:;
#BANNER:tnt-bn.png;
#BACKGROUND:tnt-bg.png;
#LYRICSPATH:;
#CDTITLE:!xjoshx.png;
#MUSIC:Trick or Treat!.mp3;
#OFFSET:0.779;
#SAMPLESTART:51.561;
#SAMPLELENGTH:11.920;
#SELECTABLE:YES;
#BPMS:0.000=120.000,21.000=60.000,23.000=120.000,24.000=110.000,25.000=100.000,26.000=95.000,27.000=138.000,55.000=284.000,64.000=138.000,92.000=283.999,101.000=134.999,141.000=69.999,142.250=69.299,144.000=142.040,208.000=139.000,216.000=140.000,220.000=141.000,222.000=147.000,224.000=150.000,229.000=153.000,232.000=160.000,236.000=165.000;
#STOPS:207.750=0.860
,237.667=0.700
;
#BGCHANGES:;
// cache tags:
#FIRSTBEAT:4.000;
#LASTBEAT:239.000;
#SONGFILENAME:Songs/Music V.I.P ^_^/Trick Or Treat- xJoshx/3le.sm;
#HASMUSIC:1;
#HASBANNER:1;
#MUSICLENGTH:108.465;
// end cache tags

//---------------dance-single - ----------------
#NOTES:
     dance-single:
     :
     Hard:
     11:
     0.898,0.909,0.046,0.120,1.000,664.000,5.000,13.000,0.000,0.000:
0000
0000
0000
0000
,
1000
0100
0010
0001
0000
1000
0001
0000
0001
0010
0000
0000
,
0010
0100
0001
1000
0000
1000
0100
0000
0100
0010
0000
0000
,
0010
0001
1000
0010
0000
0000
0100
0000
0000
0001
0000
0000
,
1000
0100
0010
0001
0000
0100
1000
0000
1000
0010
0000
0000
,
0010
0000
0000
0000
0100
0000
0000
0000
0010
0000
0000
0000
2002
0000
0000
0000
0000
0000
0000
0000
0000
0000
0000
0000
0000
0000
0000
0000
0000
0000
0000
0000
0000
3003
0000
0000
1001
0000
0000
0000
0000
0000
0000
0000
0000
0000
0000
0000
,
0011
0000
0000
0110
0000
0000
1100
0000
0000
0100
0010
0001
,
0010
0100
1000
0010
0100
0001
1000
0010
1000
0100
0010
0001
,
0010
0100
1000
0010
0100
0010
0001
0000
0000
1000
0100
0010
,
0100
0001
0010
1000
0001
0100
0001
0010
0100
1000
0100
0010
,
0100
0001
0010
1000
0001
0100
0001
0000
0000
0010
0001
0010
,
0100
1000
0010
0100
0001
0100
1000
0000
0000
0010
0100
0001
,
1000
0010
0100
0010
1000
0100
1000
0000
0000
0010
0001
0100
,
0010
0100
1000
0010
0100
0010
1000
0010
0100
0001
0010
0001
,
0010
0001
0010
0001
0010
0001
0010
0001
0010
0001
0010
0001
,
0010
0001
0010
0001
0010
0001
0010
0001
0020
0000
0000
0030
,
1000
0100
0010
1000
0010
0100
0001
0100
0010
1000
0100
0010
,
0001
0100
0010
0100
0001
0100
0010
1000
0100
0010
0000
0000
,
0001
0100
0010
1000
0001
0100
0010
1000
0100
0010
0001
0100
,
0010
0100
0001
0100
0010
1000
0100
0010
0001
0100
0000
0000
,
0001
0010
0001
0010
0001
0010
0100
1000
0100
1000
0000
0000
,
0100
0010
0100
0010
0100
0010
1000
0001
1000
0001
0000
0000
,
0010
0100
0001
1000
0010
0100
0001
1000
0010
0100
0010
1000
,
0100
0001
0100
0001
0100
0001
0100
0001
0100
0001
0100
0001
,
0100
0001
0100
0001
0100
0001
0100
0001
0100
0001
0100
0001
,
0200
0000
0300
0010
0000
0000
0000
0001
0010
0100
0000
0000
,
0000
1000
0100
0020
0000
0000
2030
0000
0000
3002
0000
0000
,
0003
0000
0000
0010
0000
0000
0000
1000
0100
0010
0000
0000
,
0000
0001
0100
0020
0000
0000
0230
0000
0000
2300
0000
0000
,
3200
0000
0300
0010
0000
0010
0001
0010
0001
0100
0000
0100
,
0010
1000
0010
0100
0000
0100
0001
0000
0001
1000
0000
1000
,
0100
0010
0100
1000
0000
1000
0100
1000
0100
0010
0000
0010
,
0001
0010
0001
0100
0000
0010
0100
0010
1000
0001
0000
0001
,
0100
0010
0100
0001
0000
0100
0001
0100
0010
1000
0000
0001
,
0100
0010
0100
1000
0000
0001
1000
0000
0001
1000
0000
0001
,
1000
0000
0000
0000
0100
0000
0000
0000
0010
0000
0000
0000
0200
0000
0000
0000
0000
0000
0000
0000
0000
0310
0000
0000
0100
0000
0000
2000
0000
0000
0000
0000
0000
0000
0000
0000
0000
0000
0000
0000
0000
0000
0000
0000
0000
3000
0000
0000
,
0010
0001
0010
0100
0010
0001
0010
0100
0010
0001
0010
0100
0010
0001
0010
0100
,
0010
0001
0010
0100
0010
0001
0010
0100
0010
0001
0010
0100
0010
0001
0010
0100
,
1000
0010
0100
0010
1000
0010
0100
0010
1000
0010
0100
0010
1000
0010
0100
0010
,
1000
0010
0100
0010
1000
0010
0100
0010
1000
0010
0100
0010
1000
0010
0100
0001
,
0010
0001
0010
0100
0010
0001
0010
0100
0010
0001
0010
0100
0010
0001
0010
0100
,
0010
0001
0010
0100
0010
0001
0010
0100
0010
0001
0010
0100
0010
0001
0010
0100
,
1000
0010
0100
0010
1000
0010
0100
0010
1000
0010
0100
0010
1000
0010
0100
0010
,
1000
0010
0100
0010
1000
0010
0100
0010
1000
0010
0100
0010
1000
0001
0100
0010
,
0100
0001
0100
1000
0100
0001
0100
1000
0100
0001
0100
1000
0100
0001
0100
1000
,
0100
0001
0100
1000
0100
0001
0100
1000
0100
0001
0100
1000
0100
0001
0100
0010
,
1000
0001
1000
0100
1000
0001
1000
0100
1000
0001
1000
0100
1000
0001
1000
0100
,
1000
0001
1000
0100
1000
0001
1000
0100
1000
0001
1000
0100
1000
0001
1000
0010
,
0100
0001
0100
1000
0100
0001
0100
1000
0100
0001
0100
1000
0100
0001
0100
1000
,
0100
0001
0100
1000
0100
0001
0100
1000
0100
0001
0100
1000
0100
0001
0100
0010
,
0001
1000
0001
0010
0001
1000
0001
0010
0001
1000
0001
0010
0001
1000
0001
0010
,
0001
1000
0001
0010
0001
1000
0001
0010
0001
1000
0001
0010
0001
1000
0001
0100
,
0010
0100
0001
0100
0010
1000
0100
0010
0001
0100
0010
0100
,
0001
0100
0010
0100
1000
0100
0010
0001
0100
0010
0000
0000
,
0001
0100
0010
0100
0001
1000
0100
0010
0100
0001
0100
0010
,
1000
0100
0010
0001
0100
0010
1000
0010
0100
0001
0000
0000
,
0010
1000
0010
1000
0100
1000
0001
0010
0001
0100
0010
0100
,
0001
0100
0001
1000
0010
1000
0100
0010
0001
0100
0000
0000
,
0001
0010
0100
1000
0100
0010
0001
0100
0010
1000
0010
0100
,
0001
1000
0001
0100
0010
1000
0001
0010
0100
1000
0000
0000
;
